<?xml version="1.0" standalone="no"?>
<!DOCTYPE svg PUBLIC "-//W3C//DTD SVG 1.1//EN" "http://www.w3.org/Graphics/SVG/1.1/DTD/svg11.dtd">
<svg xmlns="http://www.w3.org/2000/svg">
<metadata>Copyright (C) 2021 by original authors @ fontello.com</metadata>
<defs>
<font id="websiteicons-line" horiz-adv-x="1000" >
<font-face font-family="websiteicons-line" font-weight="400" font-stretch="normal" units-per-em="1000" ascent="850" descent="-150" />
<missing-glyph horiz-adv-x="1000" />
<glyph glyph-name="about" unicode="&#xe800;" d="M266 295a234 234 0 1 1 234 235 235 235 0 0 1-234-235z m453 0a219 219 0 1 0-219 219 219 219 0 0 0 219-219z m-211 78a8 8 0 0 1-8 8h-16a8 8 0 0 1 0-15h8v-172h-15a8 8 0 0 1 0-16h46a8 8 0 0 1 0 16h-15z m-24 36a12 12 0 0 1 24 0 12 12 0 0 1-24 0z m16 0a4 4 0 0 0-8 0 4 4 0 0 0 8 0z m496-58c6 3 4-1 4 116 0 6 31-19-495 382-8 5 21 23-502-375-5-4-3 2-3-116a8 8 0 0 1 13-6l96 73v-466h-101a8 8 0 0 1-8-7v-94a8 8 0 0 1 8-8h984a8 8 0 0 1 8 8v94a8 8 0 0 1-8 7h-101v466c103-79 98-77 105-74z m-980 112l484 369 484-369v-89l-479 365a8 8 0 0 1-10 0l-479-365z m968-597h-968v78h968z m-109 93h-750v478l375 286 375-286z" horiz-adv-x="1000" />

<glyph glyph-name="antivirus" unicode="&#xe801;" d="M464 577a40 40 0 0 0-3 15 8 8 0 0 1-16 0 55 55 0 0 1 6-23 87 87 0 0 1-38-75 61 61 0 0 1-51-46 138 138 0 0 1-73 20 8 8 0 0 1 0-15 122 122 0 0 0 71-23v-93h-71a8 8 0 0 1 0-16h71c0-24-1-41 9-67-39-21-62-51-62-83a8 8 0 0 1 16 0c0 25 19 50 52 68a140 140 0 0 1 249 0c33-18 52-43 52-68a8 8 0 0 1 16 0c0 32-22 62-61 83 10 27 9 46 9 67h71a8 8 0 0 1 0 16h-71v93a122 122 0 0 0 71 22 8 8 0 0 1 0 16 138 138 0 0 1-73-20 61 61 0 0 1-51 46 87 87 0 0 1-37 75 55 55 0 0 1 5 23 8 8 0 0 1-16 0 40 40 0 0 0-3-15 86 86 0 0 1-72 0z m160-143v-132a124 124 0 0 0-116-123v257a8 8 0 0 1-16 0v-257a124 124 0 0 0-116 123v132a45 45 0 0 0 45 45h158a45 45 0 0 0 45-45z m-53 63c0-4 16-2-142-2a71 71 0 1 0 142 2z m320 244a749 749 0 0 0-387 108c-1 1-4 3-9-1a748 748 0 0 0-386-107 8 8 0 0 1-7-8v-341c0-254 163-477 396-542a8 8 0 0 1 4 0c234 65 396 288 396 542v341a8 8 0 0 1-7 8z m-8-349c0-246-157-462-383-526-225 64-383 280-383 526v333a766 766 0 0 1 383 108 766 766 0 0 1 383-108z m-387 385a807 807 0 0 0-325-96 8 8 0 0 1-7-8v-281c0-217 137-413 334-477a9 9 0 0 1 4 0c197 64 334 260 334 477v281a8 8 0 0 1-7 8 807 807 0 0 0-325 96 8 8 0 0 1-8 0z m324-112v-273c0-209-131-398-320-460-189 62-320 251-320 460v273a822 822 0 0 1 320 96 822 822 0 0 1 320-96z" horiz-adv-x="1000" />

<glyph glyph-name="bad-gateway" unicode="&#xe802;" d="M317 104l-59-244a8 8 0 0 1 15-4l60 245a8 8 0 0 1-16 3z m52 216l-36-148a8 8 0 1 1 16-4l36 148a8 8 0 0 1-16 4z m262 0a8 8 0 0 1-16-4l73-298a8 8 0 0 1 15 4z m96-397a8 8 0 0 1-16-3l16-64a8 8 0 0 1 15 4z m-282 246l11 118a8 8 0 0 1-16 1c-15-156-11-109-11-118a8 8 0 0 1 16-1z m127 2l-9 86a8 8 0 0 1-15-1l8-86a8 8 0 0 1 16 1z m115 535a212 212 0 0 1-124 103 8 8 0 0 1-5-15 197 197 0 0 0 115-96 8 8 0 0 1 14 8z m211-225a169 169 0 0 1-109 70v7a57 57 0 0 1-47 57 242 242 0 0 1-484 0 57 57 0 0 1-47-57v-7a169 169 0 0 1-109-70 44 44 0 0 1 35-68h125c16-15 108-94 238-94s222 79 238 94h125a44 44 0 0 1 35 68z m-398 353a227 227 0 0 0 227-218h-454a227 227 0 0 0 227 218z m-273-281v5a42 42 0 0 0 41 42h464a42 42 0 0 0 41-42v-5z m60-140h426c-130-103-292-105-426 0z m576 15h-726a28 28 0 0 0-22 44 154 154 0 0 0 125 66h520a154 154 0 0 0 126-66 28 28 0 0 0-23-44z m-363-516a31 31 0 1 1 31-31 31 31 0 0 1-31 31z m0-46a16 16 0 1 0 16 15 16 16 0 0 0-16-15z m-144 159a8 8 0 0 1 11-11 188 188 0 0 0 266 0 8 8 0 0 1 11 11 204 204 0 0 1-288 0z m83-83a8 8 0 0 1 11-11 70 70 0 0 0 100 0 8 8 0 0 1 11 11 86 86 0 0 1-122 0z m-38 39a8 8 0 0 1 11-12 125 125 0 0 0 176 0 8 8 0 0 1 12 12 141 141 0 0 1-199 0z" horiz-adv-x="1000" />

<glyph glyph-name="can-not-reach-the-connection" unicode="&#xe803;" d="M859 131h-15c39 113-71 219-180 180a266 266 0 0 1-508-103 180 180 0 0 1 24-358h679a141 141 0 1 1 0 281z m0-265h-679a164 164 0 0 0-15 327 9 9 0 0 1 7 9 250 250 0 0 0 480 96 8 8 0 0 1 11-5c101 43 209-61 161-166a8 8 0 0 1 1-8c3-5 6-4 34-4a125 125 0 0 0 0-250z m-484 257a8 8 0 0 1-8-7 55 55 0 1 0-109 0 8 8 0 0 1-8 7c-22 0-1-78 63-78s84 78 62 78z m375 0a8 8 0 0 1-8-7 55 55 0 0 0-109 0 8 8 0 0 1-8 7c-22 0-1-78 63-78s84 78 62 78z m-203-171h-94a8 8 0 0 1 0-16h94a8 8 0 0 1 0 16z m39 617h78l-84-113a8 8 0 0 1 6-12h94a8 8 0 0 1 0 15h-78c90 121 88 115 85 121s-1 4-101 4a8 8 0 0 1 0-15z m156 140h78l-84-112a8 8 0 0 1 6-13h94a8 8 0 0 1 0 16h-78c90 121 88 114 85 121s-1 4-101 4a8 8 0 0 1 0-16z m156 125h79l-85-112a8 8 0 0 1 6-13h94a8 8 0 0 1 0 16h-78c91 121 88 115 85 121s-1 4-101 4a8 8 0 0 1 0-16z" horiz-adv-x="1000" />

<glyph glyph-name="cart-or-list-is-empty" unicode="&#xe804;" d="M508-17v234a8 8 0 0 1-16 0v-234a8 8 0 0 1 16 0z m466 469h-194l137 242a39 39 0 0 1-44 57 39 39 0 0 1-24-18l-159-281h-388l-158 281a39 39 0 1 1-69-39l137-242h-186a26 26 0 0 1-26-26v-74a26 26 0 0 1 26-25h23l88-442a44 44 0 0 1 43-35h640a44 44 0 0 1 43 35l88 442h24a26 26 0 0 1 25 25v74a26 26 0 0 1-26 26z m-111 273a23 23 0 1 0 40-23c-190-337-175-317-189-321a23 23 0 0 0-26 35z m-747 11c13-4-1 16 188-321a23 23 0 0 0-26-34c-13 4 1-15-189 321a23 23 0 0 0 27 34z m731-848a28 28 0 0 0-27-23h-640a28 28 0 0 0-27 23l-88 439h870z m137 464a10 10 0 0 0-10-10h-948a10 10 0 0 0-10 10v74a10 10 0 0 0 10 10h195c29-52 32-64 53-70a39 39 0 0 1 44 57l-7 13h370l-7-12a39 39 0 0 1 45-58c21 5 24 19 53 70h203a10 10 0 0 0 9-10z m-484 123a188 188 0 1 1-187 188 188 188 0 0 1 187-188z m0 359a172 172 0 1 0-172-171 172 172 0 0 0 172 171z m-72-255l72 72 73-72a8 8 0 0 1 11 11l-73 73 73 72a8 8 0 0 1-11 11l-73-72-72 72a8 8 0 0 1-12-11l73-72-73-73a8 8 0 0 1 12-11z m275-597l31 234a8 8 0 0 1-15 2l-31-234a8 8 0 0 1 15-2z m-388 2l-31 234a8 8 0 0 1-16-2l31-234a8 8 0 0 1 16 2z" horiz-adv-x="1000" />

<glyph glyph-name="coming-soon" unicode="&#xe805;" d="M845 515c19 19 36 32 36 62a61 61 0 0 1-104 43l-17-16a420 420 0 0 1-229 89v48h32a8 8 0 0 1 7 7v94a8 8 0 0 1-7 8h-125a8 8 0 0 1-8-8v-94a8 8 0 0 1 8-7h31v-48a420 420 0 0 1-229-89c-18 18-30 34-60 34a61 61 0 0 1-43-104l19-19c-197-277 1-665 344-665s540 389 345 665z m-57 94a45 45 0 0 0 77-32c0-23-13-32-30-49a427 427 0 0 1-62 65z m-343 225h110v-78h-110z m39-140v47h32v-47z m-336-149a45 45 0 0 0 33 77c22 0 31-13 46-28a427 427 0 0 1-62-66z m352-679a406 406 0 1 0 406 406 406 406 0 0 0-406-406z m0 742a336 336 0 1 1 336-336 337 337 0 0 1-336 336z m0-656a320 320 0 1 0 320 320 320 320 0 0 0-320-320z m8 593v24a8 8 0 0 1-16 0v-24a8 8 0 0 1 16 0z m-16-547v-23a8 8 0 0 1 16 0v23a8 8 0 0 1-16 0z m305 282h-24a8 8 0 0 1 0-16h24a8 8 0 0 1 0 16z m-570 0h-24a8 8 0 0 1 0-16h24a8 8 0 0 1 0 16z m129 242a8 8 0 0 1-8 14 8 8 0 0 1 8-14z m289-500a8 8 0 0 1 7-14 8 8 0 0 1-7 14z m0 500a8 8 0 0 1 7 14 8 8 0 0 1-7-14z m-289-500a8 8 0 0 1-8-14 8 8 0 0 1 8 14z m-117 108a8 8 0 0 1 8-13 8 8 0 0 1-8 13z m514 297a8 8 0 0 1 8-13 8 8 0 0 1-8 13z m-506 0a8 8 0 0 1-8-13 8 8 0 0 1 8 13z m514-297a8 8 0 0 1-8-13 8 8 0 0 1 8 13z m-113 118a148 148 0 1 0-148 149h106l-73-72a8 8 0 0 1 6-14c5 0-2-5 92 88a8 8 0 0 1 0 11c-2 2 1 0-86 86a8 8 0 0 1-12-11l73-72h-106a164 164 0 1 1 164-165 8 8 0 0 1-16 0z" horiz-adv-x="1000" />

<glyph glyph-name="come-back-later" unicode="&#xe806;" d="M992 780h-445v62a8 8 0 0 1-8 8h-78a8 8 0 0 1-8-8v-62h-445a8 8 0 0 1-8-8v-664a8 8 0 0 1 8-8h445v-242a8 8 0 0 1 16 0v242h62v-242a8 8 0 0 1 16 0v242h445a8 8 0 0 1 8 8v664a8 8 0 0 1-8 8z m-523 54h62v-54h-62z m515-718h-968v648h968z m-459 506a8 8 0 0 1-11 11l-98-98a8 8 0 0 1 0-11c107-106 99-100 104-100a8 8 0 0 1 5 14l-84 84h231a117 117 0 1 0 0-234h-469a8 8 0 0 1 0-16h469a133 133 0 0 1 0 266h-231z" horiz-adv-x="1000" />

<glyph glyph-name="contact" unicode="&#xe807;" d="M969 53h-16a319 319 0 0 1-221 296 64 64 0 0 0-44 62c0 36-27 72-79 72v48a106 106 0 0 1 73 69c28 0 46-6 53-16a22 22 0 0 0 0-19c-26-59-27-59-22-64 149-149 237-151 240-151 5 0 7 3 12 12a231 231 0 0 1-119 340c-211 72-477 73-692 0a231 231 0 0 1-119-340c5-9 7-12 12-12 4 0 91 2 240 151a8 8 0 0 1 2 9c-23 53-31 63-24 74 7 10 25 16 52 16a106 106 0 0 1 74-69v-48c-50 0-78-35-78-73a64 64 0 0 0-45-61 319 319 0 0 1-221-296h-16a8 8 0 0 1-8-8v-93a8 8 0 0 1 8-8h938a8 8 0 0 1 8 8v93a8 8 0 0 1-8 8z m-20 313c-19 3-97 20-221 142l10 23c41-35 143-117 229-132a226 226 0 0 0-18-33z m-898 0a225 225 0 0 0-18 33c86 15 188 97 229 133l10-24c-124-122-202-139-221-142z m201 226c-10-16-3-31 3-45-37-33-142-120-227-133a214 214 0 0 0 132 273c207 71 470 72 681 0a214 214 0 0 0 131-273c-85 13-190 101-227 133 6 13 14 28 3 45-9 15-30 23-62 23a168 168 0 0 1 2 32 23 23 0 0 1-24 23h-23a23 23 0 0 1-24-23 31 31 0 0 0-31-31h-172a31 31 0 0 0-31 31 23 23 0 0 1-24 23h-23a23 23 0 0 1-23-23 171 171 0 0 1 1-31c-32-1-53-9-62-24z m148-47a89 89 0 0 0-72 88v14a8 8 0 0 0 8 8h23a8 8 0 0 0 8-8 47 47 0 0 1 47-47h172a47 47 0 0 1 47 47 8 8 0 0 0 8 8h23a8 8 0 0 0 8-8v-14a89 89 0 0 0-72-88 8 8 0 0 1-6-7v-55h-188v55a8 8 0 0 1-6 7z m-127-211a80 80 0 0 1 55 77 57 57 0 0 0 57 56h230a57 57 0 0 0 57-56 80 80 0 0 1 55-77 303 303 0 0 0 211-281h-875a303 303 0 0 0 210 281z m688-375h-922v79h922z m-461 461a164 164 0 1 1 164-164 164 164 0 0 1-164 164z m0-312a148 148 0 1 0 148 148 148 148 0 0 0-148-148z m0 242a94 94 0 1 1 94-94 94 94 0 0 1-94 94z m0-172a78 78 0 1 0 78 78 78 78 0 0 0-78-78z" horiz-adv-x="1000" />

<glyph glyph-name="data-not-available" unicode="&#xe808;" d="M859 514h-15c39 112-71 219-180 180a266 266 0 0 1-508-103 180 180 0 0 1 24-358h70v-375a8 8 0 0 1 8-8h484a8 8 0 0 1 8 8v375h109a141 141 0 1 1 0 281z m-125-648h-468v593h359v-101a8 8 0 0 1 8-8h101z m-11 500h-82v82z m136-118h-109c0 115 1 112-2 115-117 118-110 112-115 112-6 0 48 0-375 0a8 8 0 0 1-8-8v-219h-70a164 164 0 0 0-15 328 9 9 0 0 1 7 8 250 250 0 0 0 480 96 8 8 0 0 1 11-4c101 43 208-62 161-166a8 8 0 0 1 1-8c3-5 6-4 34-4a125 125 0 1 0 0-250z m-304 47c-72 43-149-7-149-78a8 8 0 0 1 16 0c0 59 64 101 125 64 40-23 47-106-15-135a70 70 0 0 1-40-64v-29a8 8 0 0 1 16 0v29a55 55 0 0 0 31 49 94 94 0 0 1 51 58c12 41-5 88-35 106z m-55-281a16 16 0 1 1 16-16 16 16 0 0 1-16 16z m0-16l0 0c11 0 10 0 0 0z" horiz-adv-x="1000" />

<glyph glyph-name="data-user" unicode="&#xe809;" d="M852 850h-672a70 70 0 0 1-71-70c0-922 0-860 0-865a72 72 0 0 1 73-65h670a39 39 0 0 1 39 39v922a39 39 0 0 1-39 39z m23-39v-797a23 23 0 0 0-23-23h-649v843h649a23 23 0 0 0 23-23z m-750-31a55 55 0 0 0 55 54h8v-843h-8a70 70 0 0 1-54-26c-1-1-1-39-1 815z m750-891a23 23 0 0 0-23-23h-670c-48 0-75 54-44 89a54 54 0 0 0 42 20c710 0 680-3 695 8z m-436 369a258 258 0 1 1-166 240 258 258 0 0 1 166-240z m-59 52c46 178 257 178 303 0a241 241 0 0 0-303 0z m151 431c220 0 325-270 165-419-20 67-65 115-121 132a102 102 0 1 1-87 0c-57-17-102-65-121-133-160 149-56 420 164 420z m0-282a86 86 0 1 0 86 86 86 86 0 0 0-86-86z m223-289h-438a8 8 0 0 1 0-15h438a8 8 0 0 1 0 15z m0-93h-438a8 8 0 0 1 0-16h438a8 8 0 0 1 0 16z" horiz-adv-x="1000" />

<glyph glyph-name="delete" unicode="&#xe80a;" d="M160 588c1 0-25-5 682 120a8 8 0 0 1 5 11l-16 39a55 55 0 0 1-60 33l-163-29-4 24a77 77 0 0 1-89 63l-102-18a77 77 0 0 1-62-90l3-24-155-27a55 55 0 0 1-45-52l-2-42a8 8 0 0 1 8-8z m206 156a62 62 0 0 0 49 71l102 18a61 61 0 0 0 71-50l4-23-223-39z m-196-106a39 39 0 0 0 32 37l572 100a39 39 0 0 0 43-23l12-30-661-116z m322-218v-406a8 8 0 0 1 16 0v406a8 8 0 0 1-16 0z m164 1l-31-406a8 8 0 0 1 16-2l31 407a8 8 0 0 1-16 1z m-328-1l31-407a8 8 0 0 1 16 2l-31 406a8 8 0 0 1-16-1z m563 63h-67l4 62a8 8 0 0 1-8 8c-686 0-642 2-646-2s-2-3 2-68h-67a8 8 0 0 1-7-8v-102a8 8 0 0 1 7-7h75l32-465a55 55 0 0 1 54-51h460a55 55 0 0 1 54 51l32 465h75a8 8 0 0 1 7 7v102a8 8 0 0 1-7 8z m-774-102v86h60l6-86z m651-479a39 39 0 0 0-39-36h-459a39 39 0 0 0-39 36l-43 636h624z m115 479h-66l6 86h60z" horiz-adv-x="1000" />

<glyph glyph-name="done" unicode="&#xe80b;" d="M500 717a367 367 0 1 1 367-367 368 368 0 0 1-367 367z m0-719a352 352 0 1 0 352 352 352 352 0 0 0-352-352z m472 426c-25 41-27 49-27 100 1 72-9 90-73 125-42 24-49 31-73 73-36 65-54 74-125 73-50 0-59 2-100 27-63 38-85 38-148 0-41-25-49-27-100-27-71 1-89-8-125-73-24-42-30-49-73-73-64-35-74-53-73-125 0-50-2-59-27-100-38-63-38-85 0-148 25-41 27-49 27-100-1-72 9-90 73-125 42-24 49-30 73-73 36-65 55-74 125-73 51 0 59-2 100-27 63-38 85-38 148 0 41 25 50 27 100 27 72-1 90 8 126 73 23 42 30 49 73 73 64 35 74 54 73 125-1 50 2 59 26 100 38 63 38 85 0 148z m-14-140c-26-43-29-55-28-108 1-66-6-79-65-111-46-26-54-34-79-80-33-59-46-66-112-65-53 1-64-2-108-28-58-35-74-35-132 0-37 22-51 28-95 28-28 0-59-3-81 10-34 20-45 72-76 102s-82 42-101 76-4 84-15 126c-11 40-50 77-50 116s40 77 50 116c11 42-5 93 15 126s71 45 101 76 42 82 75 101 85 4 126 15c41 11 78 50 117 50s77-39 116-50c42-11 93 5 126-14s45-72 76-102 82-42 101-75 4-85 15-126c11-40 50-78 50-117 0-23-13-45-26-66z m-287 219a8 8 0 0 1-11 0l-222-222-98 97a8 8 0 0 1-11 0c-47-48-47-45-47-50s-9 6 150-153a8 8 0 0 1 11 0c291 291 275 273 275 278s0 3-47 50z m-233-311l-136 136 33 33 97-97a8 8 0 0 1 11 0l222 222 33-33z" horiz-adv-x="1000" />

<glyph glyph-name="downloading" unicode="&#xe80c;" d="M780 366a112 112 0 0 1 0 223h-10a112 112 0 0 1-141 140 208 208 0 0 1-398-81 142 142 0 0 1 20-282h187v-32c-50 0-52 2-55-4s0-7 35-42h-145a8 8 0 0 1-7-8v-71h-55a8 8 0 0 1-8-7v-313a39 39 0 0 1 39-39h516a39 39 0 0 1 39 39v391a8 8 0 0 1-8 8h-207c35 35 35 34 35 39a8 8 0 0 1-8 7h-46v32z m-529 15a126 126 0 0 0-11 252 9 9 0 0 1 7 8 193 193 0 0 0 370 75 8 8 0 0 1 5-5c7-3 14 8 42 8a96 96 0 0 0 87-135 8 8 0 0 1 7-12h21a96 96 0 0 0 0-191h-216v149a8 8 0 0 1-8 8h-110a8 8 0 0 1-7-8v-149z m-9-515a23 23 0 0 0-23 23v305h128l29-44c4-5-13-3 343-3 0-276-3-265 6-278 2-5 55-3-483-3z m539 406v-383a23 23 0 0 0-46-5c-1 4-1-13-1 271a8 8 0 0 1-7 8h-340c-31 46-30 46-35 46h-71v63h153l60-60a8 8 0 0 1 12 0l60 60z m-191 47l-90-91-90 91h35a8 8 0 0 1 8 8v195h94v-195a8 8 0 0 1 8-8z" horiz-adv-x="1000" />

<glyph glyph-name="empty-box" unicode="&#xe80d;" d="M885 420c122 180 117 169 115 175s19-4-354 136a148 148 0 0 1-292 0l-349-131a8 8 0 0 1-4-12l114-168-114-167a8 8 0 0 1 4-12l112-42v-201c0-8-23 4 380-148a9 9 0 0 1 6 0c406 153 380 141 380 148v201l112 42a8 8 0 0 1 4 12z m-354 55a8 8 0 0 1 8 8c0 40-1 44 2 54l311-117-352-132-352 132 314 118c-2-11-1-15-1-55a8 8 0 0 1 8-8z m-46 122c-73 107-67 97-63 97a8 8 0 0 1 8 8 70 70 0 1 0 103-63 136 136 0 0 1-48-42z m387-167l-323 121a58 58 0 0 0 20 19 148 148 0 0 1 79 143l332-125z m-460 370a133 133 0 1 0 150-216 71 71 0 0 1-39-62v-31h-46v30a118 118 0 0 0 63 104c75 40 54 153-30 162a86 86 0 0 1-96-78h-47a133 133 0 0 0 45 91z m-60-87c0-4 0-8 0-11a8 8 0 0 1 7-8h41l76-112a132 132 0 0 1-10-25l-338-127-108 158z m-224-302l359-135-107-158-360 134z m5-218c264-99 248-93 250-93 6 0-3-10 109 154v-385l-359 135z m734-189l-359-135v385c111-163 103-154 109-154 3 0-14-6 250 93z m-247 114l-108 158 360 135 108-159z m-120 240a39 39 0 1 1-39 39 39 39 0 0 1 39-39z m0 62a23 23 0 1 0-23-23 23 23 0 0 0 23 23z" horiz-adv-x="1000" />

<glyph glyph-name="error-502" unicode="&#xe80e;" d="M977 100h-47v570a39 39 0 0 1-39 39h-782a39 39 0 0 1-39-39v-570h-47a23 23 0 0 1-23-23c0-40-3-49 8-58a115 115 0 0 1 76-29h833a115 115 0 0 1 76 29c10 9 7 18 7 58a23 23 0 0 1-23 23z m-891 570a23 23 0 0 0 23 24h782a23 23 0 0 0 23-24v-570h-828z m512-586l-10-23h-176l-10 23z m384-53a99 99 0 0 0-65-24c-906 0-846-4-871 7a99 99 0 0 0-28 18c-3 2-2 1-2 45a8 8 0 0 0 7 7h362c15-35 14-39 21-39 203 0 192-2 196 5l13 34h362a8 8 0 0 0 7-7c0-43 1-43-2-46z m-107 116v500a8 8 0 0 1-8 8h-734a8 8 0 0 1-8-8v-500a8 8 0 0 1 8-8h734a8 8 0 0 1 8 8z m-16 8h-718v484h718z m-588 268l42 41 41-41a8 8 0 0 1 11 11l-41 41 41 41a8 8 0 0 1-11 12l-41-42-42 42a8 8 0 0 1-11-12l41-41-41-41a8 8 0 0 1 11-11z m375 0l42 41 41-41a8 8 0 0 1 11 11l-41 41 41 41a8 8 0 0 1-11 12l-41-42-42 42a8 8 0 0 1-11-12l41-41-41-41a8 8 0 0 1 11-11z m-271-135h250a8 8 0 0 1 0 15h-250a8 8 0 0 1 0-15z" horiz-adv-x="1000" />

<glyph glyph-name="faq" unicode="&#xe80f;" d="M207 538h-78a8 8 0 0 1-8-8v-157a8 8 0 0 1 16 0v71h51a8 8 0 0 1 0 15h-51v63h70a8 8 0 0 1 0 16z m94-6a8 8 0 0 1-16 0l-47-156a8 8 0 0 1 16-5l13 45h52l13-45a8 8 0 0 1 16 5z m-29-100l21 70 21-70z m202-56l9-8a8 8 0 0 1 11 11l-9 9c15 19 11 34 11 95a55 55 0 0 1-109 0v-63a55 55 0 0 1 87-44z m-71 107a39 39 0 0 0 78 0c0-66 2-71-7-84l-25 24a8 8 0 0 1-11-12l25-23a39 39 0 0 0-60 32z m408-25a70 70 0 0 1-84-69 8 8 0 0 1 15 0 55 55 0 0 0 66 54c51-10 59-81 12-103a55 55 0 0 1-31-50v-26a8 8 0 0 1 16 0v26a39 39 0 0 0 22 35c61 29 50 120-16 133z m-14-217a16 16 0 1 1 16-16 16 16 0 0 1-16 16z m0-16l0 0c-11 0-10 0 0 0z m133 383h-313v47a70 70 0 0 1-70 70h-477a70 70 0 0 1-70-70v-407a70 70 0 0 1 70-70h63c0-83-2-82 4-85s-3-7 147 85h99v-47a70 70 0 0 1 70-70h264c150-92 141-88 146-85s4-1 4 85h63a70 70 0 0 1 70 70v407a70 70 0 0 1-70 70z m-649-414c-3 0 7 6-133-80v72a8 8 0 0 1-7 8h-71a55 55 0 0 0-54 54v407a55 55 0 0 0 54 54h477a55 55 0 0 0 55-54v-407a55 55 0 0 0-55-54z m703-63a55 55 0 0 0-54-54h-71a8 8 0 0 1-7-8v-72c-141 86-130 80-133 80h-266a55 55 0 0 0-55 54v47h149a70 70 0 0 1 70 70v344h313a55 55 0 0 0 54-54z" horiz-adv-x="1000" />

<glyph glyph-name="fatal-error" unicode="&#xe810;" d="M998 560c-310 310-289 290-294 290-438 0-410 1-413-2-311-310-291-289-291-294 0-439-1-410 2-413 311-311 289-291 294-291 439 0 410-1 414 2 310 311 290 289 290 294 0 438 1 410-2 414z m-14-410l-283-284h-401l-284 284v401l284 283h401l283-283z m-316 614c-359 0-338 1-342-2-254-254-240-239-240-244 0-359-1-338 2-342 254-254 239-240 244-240 359 0 339-1 342 2 254 254 240 239 240 244 0 359 1 339-2 342-254 254-239 240-244 240z m230-579l-233-233h-330l-233 233v330l233 233h330l233-233z m-268 376l-130-131-130 131a8 8 0 0 1-11 0l-62-61a8 8 0 0 1 0-12l131-130-131-130a8 8 0 0 1 0-12l62-61a8 8 0 0 1 11 0l130 131 130-131a8 8 0 0 1 12 0l61 61a8 8 0 0 1 0 12l-131 130 131 130a8 8 0 0 1 0 12l-61 61a8 8 0 0 1-12 0z m-74-197a8 8 0 0 1 0-12l130-130-50-50-130 131a8 8 0 0 1-12 0l-130-131-50 50 131 130a8 8 0 0 1 0 12l-131 130 50 50 130-131a8 8 0 0 1 12 0l130 131 50-50z" horiz-adv-x="1000" />

<glyph glyph-name="folder-data" unicode="&#xe811;" d="M977 584h-164v94h164a8 8 0 0 1 7 8v70a94 94 0 0 1-93 94h-625a94 94 0 0 1-94-94v-172h-70a8 8 0 0 1-8-7v-125h-71a8 8 0 0 1-7-8v-533a61 61 0 0 1 61-61h845a63 63 0 0 1 62 62v665a8 8 0 0 1-7 7z m-8 172v-62h-156v62a78 78 0 0 0 156 0z m-703 78c600 0 573 0 573 0a94 94 0 0 1-36-45c-8-22-6 2-6-415h-496l-52 75c-3 4-2 3-61 3v304a78 78 0 0 0 78 78z m-157-265h63v-117h-63z m-32-703a45 45 0 0 0-46 45v525h207l52-75c4-5-30-3 569-3v-446a63 63 0 0 1 21-46z m892 46c0-59-94-66-94 5v449a8 8 0 0 1-8 7h-54v196h156z m-524 391a188 188 0 1 1 188-187 188 188 0 0 1-188 187z m0-359a172 172 0 1 0 172 172 172 172 0 0 0-172-172z m88 240l-119-120-57 57a8 8 0 0 1-11-11c67-67 63-65 68-65s-6-9 131 128a8 8 0 0 1-12 11z m-252 525h422a8 8 0 0 1 0 16h-422a8 8 0 0 1 0-16z m0-93h422a8 8 0 0 1 0 15h-422a8 8 0 0 1 0-15z m0-94h422a8 8 0 0 1 0 16h-422a8 8 0 0 1 0-16z" horiz-adv-x="1000" />

<glyph glyph-name="landing-success" unicode="&#xe812;" d="M854 146a359 359 0 0 1-346 423v124c14 5 56 17 98-2a151 151 0 0 1 116 0c7 3 5-2 5 140a8 8 0 0 1-12 8c0 0-52-23-103 0a152 152 0 0 1-104 4 8 8 0 0 1-16-1v-273a358 358 0 0 1-224-85c-142 50-237 54-262 11-24-42 25-108 72-158a86 86 0 0 1 63-135c6-301 360-463 591-268 66-23 226-71 262-10 25 43-26 124-140 222z m-248 678a152 152 0 0 1 105-4v-116c-14-5-56-17-98 2a150 150 0 0 1-105 4v116c14 5 56 16 98-2z m-98-326v55c310-7 453-393 220-600-171 61-369 173-511 283a86 86 0 0 1-25 126 343 343 0 0 0 300 191v-55a8 8 0 0 1 16 0z m-254-26a361 361 0 0 1-76-104 85 85 0 0 1-90-19c-154 163-47 196 166 123z m-176-184a70 70 0 1 0 70-71 70 70 0 0 0-70 71z m78-86a86 86 0 0 1 50 22c144-111 339-222 508-283-222-178-551-22-557 261z m824-270c-20-34-110-28-235 14a356 356 0 0 1 105 182c100-87 150-162 130-196z" horiz-adv-x="1000" />

<glyph glyph-name="launching" unicode="&#xe813;" d="M500 491a109 109 0 1 1 109-110 109 109 0 0 1-109 110z m0-203a94 94 0 1 0 94 93 94 94 0 0 0-94-93z m396-30l-216 174v129c0 114-57 192-55 187 0 0 0 1 0 1a327 327 0 0 1-81 87 73 73 0 0 1-88 0 342 342 0 0 1-136-275v-129l-216-174c-4-4-3 0-3-95a8 8 0 0 1 8-8h211a52 52 0 0 1 49-55l14-57a8 8 0 0 1 8-6h40a65 65 0 0 1-9-33c0-65 69-148 72-151a8 8 0 0 1 12 0c3 3 72 86 72 151a65 65 0 0 1-9 34h40a8 8 0 0 1 8 6l14 56c25 1 49 22 49 55h211a8 8 0 0 1 7 8c0 95 2 91-2 95z m-430 565a57 57 0 0 0 68 0 308 308 0 0 0 72-75 285 285 0 0 0-212 0 306 306 0 0 0 72 75z m-349-653v78l203 164v-242z m446-166c0-49-46-112-63-133-17 21-62 84-62 133a50 50 0 0 0 13 34h98a50 50 0 0 0 14-34z m40 49h-206l-12 47h230z m61 99a36 36 0 0 0-34-36h-259a36 36 0 0 0-35 36v409a330 330 0 0 0 49 174 300 300 0 0 1 230 0c61-98 49-182 49-307z m219 18h-203v241l203-164z" horiz-adv-x="1000" />

<glyph glyph-name="log-in" unicode="&#xe814;" d="M883 264a8 8 0 0 1 8 8v156a8 8 0 0 1-8 8h-211v305a8 8 0 0 1-8 7h-242v94a8 8 0 0 1-11 8l-296-102a8 8 0 0 1-6-7c0-833-3-786 6-789 317-109 297-102 299-102a8 8 0 0 1 8 8v94h461a8 8 0 0 1 0 15h-211v297z m-8 16h-305a8 8 0 0 1-7-8v-59l-138 137 138 137v-59a8 8 0 0 1 7-8h305z m-453 406h180v-250h-24v70a8 8 0 0 1-13 6l-143-143z m234 47v-297h-39v258a8 8 0 0 1-8 8h-187v31z m-250-864l-281 96v770l281 96z m16 462c156-156 144-145 148-145a8 8 0 0 1 8 8v70h24v-297h-180z m234-364h-39v297h39z m-312 406v-46a8 8 0 0 1 15 0v46a8 8 0 0 1-15 0z" horiz-adv-x="1000" />

<glyph glyph-name="log-out" unicode="&#xe815;" d="M344 373v-46a8 8 0 0 1 15 0v46a8 8 0 0 1-15 0z m539-406h-211v297h47v-70a8 8 0 0 1 8-8c5 0-7-10 161 159a8 8 0 0 1 0 11l-156 156a8 8 0 0 1-13-6v-70h-47v305a8 8 0 0 1-8 7h-242v94a8 8 0 0 1-11 8l-296-102a8 8 0 0 1-6-7c0-833-3-786 6-789 317-109 297-102 299-102a8 8 0 0 1 8 8v94h461a8 8 0 0 1 0 15z m-156 453a8 8 0 0 1 7 8v59l138-137-138-137v59a8 8 0 0 1-7 8h-305v140z m-305 266h180v-250h-180z m234 47v-297h-39v258a8 8 0 0 1-8 8h-187v31z m-250-864l-281 96v770l281 96z m16 395h180v-297h-180z m195-297v297h39v-297z" horiz-adv-x="1000" />

<glyph glyph-name="no-comment" unicode="&#xe816;" d="M867 834h-734a133 133 0 0 1-133-132v-555a133 133 0 0 1 133-133h242v-139a8 8 0 0 1 8-8c4 0-10-10 175 147h309a133 133 0 0 1 133 133v555a133 133 0 0 1-133 132z m117-687a117 117 0 0 0-117-117h-312c-5 0 7 9-164-138v130a8 8 0 0 1-8 8h-250a117 117 0 0 0-117 117v555a117 117 0 0 0 117 117h734a117 117 0 0 0 117-117z m-484 555a273 273 0 1 1 273-274 274 274 0 0 1-273 274z m0-532a258 258 0 1 0 258 258 258 258 0 0 0-258-258z m125 429a209 209 0 0 1-125 40c-174 0-271-198-170-336a8 8 0 0 1 6-3c5 0-15-19 289 286a8 8 0 0 1 0 13z m-288-278c-85 127 7 302 163 302a193 193 0 0 0 107-32z m328 235c-6 0 13 17-290-286a8 8 0 0 1 1-12c137-101 335-4 335 170a209 209 0 0 1-41 125 8 8 0 0 1-5 3z m-165-323a193 193 0 0 0-107 32l270 270c85-127-7-302-163-302z" horiz-adv-x="1000" />

<glyph glyph-name="no-connection" unicode="&#xe817;" d="M78-9h-31a8 8 0 0 1 0-16h31a8 8 0 0 1 0 16z m0-63h-31a8 8 0 0 1 0-16h31a8 8 0 0 1 0 16z m914 102h-101v15a8 8 0 0 1-16 0h-125c-4 0-2 1-42-31h-28a8 8 0 0 1-8-8v-8l-56-7a8 8 0 0 1-6-8 253 253 0 0 0-32 3 319 319 0 0 1 125 255v187a8 8 0 0 1-8 8h-15v22c8 24 9 25 6 29l-15 24a8 8 0 0 1-14-9l14-20c-9-27-7-15-7-46h-16a8 8 0 0 1-7-8v-187a256 256 0 0 0-141-230 258 258 0 0 0-141 230v187a8 8 0 0 1-7 8h-16c0 30 2 19-7 46l13 20a8 8 0 0 1-13 9l-15-24c-3-4-2-6 6-29v-22h-15a8 8 0 0 1-8-8v-187a320 320 0 0 1 126-255 257 257 0 0 0-32-3 8 8 0 0 1-7 8l-56 7v8a8 8 0 0 1-8 8h-28l-37 30c-3 2 5 1-130 1a8 8 0 0 1-15 0v-15h-102a8 8 0 0 1-8-8v-141a8 8 0 0 1 8-8h101v-15a8 8 0 0 1 16 0h125c4 0 2-1 42 31h28a8 8 0 0 1 8 8v8l56 7a8 8 0 0 1 7 8 317 317 0 0 1 109 22 319 319 0 0 1 109-22 8 8 0 0 1 7-8l56-7v-8a8 8 0 0 1 8-8h28c39-31 38-31 42-31h125a8 8 0 0 1 16 0v15h101a8 8 0 0 1 8 8v141a8 8 0 0 1-8 8z m-336 211v179h32v-179a304 304 0 0 0-132-250 254 254 0 0 0-38 12 272 272 0 0 1 138 238z m-640-352v125h93v-125z m297 16c-26 0-26 0-29-2l-37-30h-122v157h122c41-33 38-32 42-32h24z m62 22l-47-6v60c52-6 47-5 47-6z m16 9v31a281 281 0 0 1 50 6 323 323 0 0 1 38-21 301 301 0 0 0-88-16z m-78 305v179h31v-179a274 274 0 0 1 265-274v-31a305 305 0 0 0-296 305z m312-314v48c0 1-5 0 47 7v-60z m91-24c-3 2-3 2-28 2v93h23c4 0 2 0 42 32h122v-157h-122z m268-14h-93v125h93z m-62 86h31a8 8 0 0 1 0 16h-31a8 8 0 0 1 0-16z m0-63h31a8 8 0 0 1 0 16h-31a8 8 0 0 1 0-16z m-381 647l-41-41-41 41a8 8 0 0 1-11-11l41-42-41-41a8 8 0 0 1 11-11l41 41 41-41a8 8 0 0 1 12 11l-42 41 42 42a8 8 0 0 1-12 11z m70 58a156 156 0 0 1-222 0 8 8 0 0 1 12-11 141 141 0 0 0 198 0 8 8 0 0 1 12 11z m-343 121a328 328 0 0 0 464 0 8 8 0 0 1 11 12 344 344 0 0 1-486 0 8 8 0 0 1 11-12z m409-55a250 250 0 0 1-354 0 8 8 0 0 1 11-11 234 234 0 0 0 332 0 8 8 0 0 1 11 11z" horiz-adv-x="1000" />

<glyph glyph-name="no-messages" unicode="&#xe818;" d="M836 694h-203v47h117a8 8 0 0 1 8 7v94a8 8 0 0 1-8 8h-125a8 8 0 0 1-8-8v-148h-297a164 164 0 0 1-122-55 188 188 0 0 1-42-372v-56l-71-203a120 120 0 0 1 114-158 229 229 0 0 1 217 155l66 197h104v-344a8 8 0 0 1 16 0v344h93v-344a8 8 0 0 1 16 0v344h281a8 8 0 0 1 8 7v321a164 164 0 0 1-164 164z m-94 62h-109v78h109z m-726-304a172 172 0 1 0 151-171 6 6 0 0 1-3 0 172 172 0 0 0-148 171z m359 0a188 188 0 0 1-157 185c95 90 251 22 251-107v-313h-297v47a188 188 0 0 1 203 188z m26-442a213 213 0 0 0-202-144 104 104 0 0 0-100 136l71 199h296z m583 207h-500v313a164 164 0 0 1-93 148h226v-204a39 39 0 1 1 16 0v204h203a148 148 0 0 0 148-148z m-359 242a23 23 0 1 0-23-23 23 23 0 0 0 23 23z m-437-19c78-78 73-74 78-74a8 8 0 0 1 5 13l-72 73 72 72a8 8 0 0 1-11 11l-72-72-73 72a8 8 0 0 1-11-11l72-72-72-73a8 8 0 0 1 5-13c5 0 0-4 79 74z" horiz-adv-x="1000" />

<glyph glyph-name="no-results" unicode="&#xe819;" d="M538 193a8 8 0 0 1 12-11 63 63 0 0 0 88 0 8 8 0 0 1 11 11 78 78 0 0 1-111 0z m126 85v16a8 8 0 0 1-16 0v-16a8 8 0 0 1 16 0z m-125 0v16a8 8 0 0 1-16 0v-16a8 8 0 0 1 16 0z m-67 100c-108-109-30-294 122-294s230 186 121 294a172 172 0 0 1-243 0z m232-232a156 156 0 1 0 0 221 156 156 0 0 0 0-221z m288-215l-160 161a28 28 0 0 1-34 4l-29 29a219 219 0 0 1-128 345v208h164a8 8 0 0 1 8 8v70a94 94 0 0 1-94 94h-625a94 94 0 0 1-94-94c0-959-3-902 5-905 5-3 4-2 55 29l48-29c6-3 4-2 56 29 50-30 51-32 56-29l48 29 48-29c6-3 4-2 57 29 50-30 50-32 56-29l48 29 48-29c5-3 4-2 56 29 52-31 50-32 56-29s4-9 4 192a217 217 0 0 1 84 38l29-29a27 27 0 0 1 4-33l161-161a27 27 0 0 1 19-8c14 0 18 7 54 44a27 27 0 0 1 0 37z m-195 325a203 203 0 1 0-203 203 203 203 0 0 0 203-203z m0 500v-62h-156v62a78 78 0 0 0 156 0z m-172-884c-43 26-43 27-48 24l-48-29-48 29c-6 3-5 2-56-29-51 30-51 32-57 29l-48-29-48 29c-5 3-4 2-56-29-50 30-50 32-56 29l-48-29-48 29c-5 3-5 2-48-24v884a78 78 0 0 0 78 78c600 0 574 0 573 0a95 95 0 0 1-41-67c-1-9-1 17-1-294a219 219 0 0 1-186-62c-148-148-22-401 186-371z m134 241l28-28-22-22-28 28a200 200 0 0 1 22 22z m186-244a11 11 0 0 0-15 0c-176 176-164 162-164 169s0 5 39 43a11 11 0 0 0 15 0c176-176 164-162 164-169s0-4-39-43z m-543 711c13 40-5 88-34 106-72 43-149-7-149-78a8 8 0 0 1 15 0c0 58 64 101 125 64 40-23 48-107-14-135a70 70 0 0 1-40-65v-28a8 8 0 0 1 15 0v28a55 55 0 0 0 32 50 94 94 0 0 1 50 58z m-89-175a16 16 0 1 1 15-16 16 16 0 0 1-15 16z m0-16l0 0c10 0 10 0 0 0z" horiz-adv-x="1000" />

<glyph glyph-name="notification" unicode="&#xe81a;" d="M281 381h102a47 47 0 1 1 93 0h102a31 31 0 0 1 5 63c-24 43-20 75-20 129a136 136 0 0 1-100 132 39 39 0 1 1-67 0 133 133 0 0 1-58-32c-76-73-13-144-62-229a31 31 0 0 1 5-63z m149-39a31 31 0 0 0-30 39h60a31 31 0 0 0-30-39z m0 406a23 23 0 0 0 16-39 116 116 0 0 1-32 0 23 23 0 0 0 16 39z m-81-87c74 71 198 19 198-88 0-53-4-86 18-129h-270c42 86-13 153 54 217z m-68-233h297a16 16 0 1 0 0-31h-297a16 16 0 0 0 0 31z m719-250a180 180 0 0 1-141 176c0 156 1 146-1 149s11-10-124 116v223a8 8 0 0 1-7 8h-594a8 8 0 0 1-8-8v-223c-168-157-112-103-123-115-4-4-2 8-2-646a8 8 0 0 1 8-8h844a8 8 0 0 1 7 8v145a180 180 0 0 1 141 175z m-160 320l-106-97v196z m-121 336v-448l-209-193a117 117 0 0 0-160 0l-209 193v448z m-703-354c22-20 317-294 327-302l-327-305z m339-312a132 132 0 0 1 149 0l324-302h-797z m-230 233l-105 97 105 99z m719-528l-327 305c20 18-64-59 327 302v-124a180 180 0 1 1 0-356z m-24 141a164 164 0 1 0 164 164 164 164 0 0 0-164-164z m88 232l-119-119-57 57a8 8 0 0 1-11-11c67-68 63-65 68-65s-6-10 131 127a8 8 0 0 1-12 11z" horiz-adv-x="1000" />

<glyph glyph-name="order-completed" unicode="&#xe81b;" d="M1000 663a188 188 0 1 1-369-47h-623a8 8 0 0 1-8-8v-750a8 8 0 0 1 8-8h797a8 8 0 0 1 8 8v617a188 188 0 0 1 187 188z m-492-63v-152l-23 11c-4 2-4 1-37-14-33 15-33 16-37 14l-31-14-30 14c-5 2-5 1-29-11v152z m-492-734v734h289c0-178-2-167 3-171s6-1 39 14c33-16 32-16 37-14l30 14 31-14c4-2 4-1 37 14 33-16 31-15 34-15a8 8 0 0 1 7 8v164h113a188 188 0 0 1 161-124v-610z m797 625a172 172 0 1 0 171 172 172 172 0 0 0-171-172z m-579-493h-156a8 8 0 0 1-8-7v-63a8 8 0 0 1 8-8h156a8 8 0 0 1 8 8v63a8 8 0 0 1-8 7z m-7-62h-141v47h141z m674 795l-120-120-57 57a8 8 0 0 1-11-11c68-67 64-65 68-65s-5-8 131 128a8 8 0 0 1-11 11z" horiz-adv-x="1000" />

<glyph glyph-name="page-under-construction" unicode="&#xe81c;" d="M999 8a120 120 0 0 1-124 100 77 77 0 0 0-56 22l-252 253 271 272c47 8 63 32 125 94a8 8 0 0 1 0 11l-70 71a8 8 0 0 1-12 0c-61-62-86-79-94-125l-271-272-179 178c-55 55-31 99-55 139-45 75-104 75-148 75s-87-29-88-30a8 8 0 0 1 0-13l95-54v-48l-35-23-94 54a8 8 0 0 1-12-7c0-66 24-114 74-147 44-29 157-3 173-19l187-187-32-31-30 31a8 8 0 0 1-11 0l-36-35c-5-6 3-26-19-48l-5-4a59 59 0 0 0-53-17c-6 2 11 16-236-231a42 42 0 0 1 0-59l79-78a42 42 0 0 1 59 0c249 249 233 230 231 236-8 40 28 75 63 75 4 0 3 0 41 37a8 8 0 0 1 0 11l-31 31 31 31 252-252a76 76 0 0 0 22-56 121 121 0 1 1 240 15z m-740 542c-24 24-136-6-176 21-42 28-64 66-67 120l86-49c6-3 5-2 51 28 5 4 3 4 3 63 0 6 2 3-90 56a156 156 0 0 0 68 21c42 0 94 0 134-67 22-35-1-84 58-142l178-178-59-59z m181-343c-41-2-82-42-75-90l-227-226a26 26 0 0 0-36 0c-82 82-86 82-86 97s-11-1 234 245a81 81 0 0 1 90 75l27 28 101-102z m-26 103c411 411 388 386 388 390a99 99 0 0 0 28 57l57 56 59-59-57-56c-27-28-57-26-61-31l-385-385z m540-396c-68-67-183-17-179 78a92 92 0 0 1-27 68l-252 253 59 59 252-253a93 93 0 0 1 69-27c93 5 145-110 78-178z m-35 134c-3 6-1 4-72 4-6 0-4 1-39-60-3-6-3-3 33-64 3-6 0-4 71-4 7 0 4-1 40 60 3 5 3 3-33 64z m-11-108h-56l-28 48 28 48h55l28-48z" horiz-adv-x="1000" />

<glyph glyph-name="paper-plane-message" unicode="&#xe81d;" d="M1000 804a8 8 0 0 1-8 7c-3 0 43 23-988-524a8 8 0 0 1 1-15l309-104c52-153 93-275 93-275a8 8 0 0 1 8-4c5 0-5-8 187 183 284-96 265-91 270-88s128 819 128 820z m-57-36l-625-584-290 97z m-18-38c-486-629-464-600-465-603s3 15-47-201l-84 246z m-497-808l45 193 112-38z m433 79l-380 128 499 645z" horiz-adv-x="1000" />

<glyph glyph-name="payment-processed" unicode="&#xe81e;" d="M445 545c-77 0-140-49-140-109s63-109 140-109 141 49 141 109-63 109-141 109z m0-203c-68 0-125 42-125 94s56 94 125 94 125-42 125-94-56-94-125-94z m-7-140v-47a8 8 0 0 1 15 0v47a8 8 0 0 1-15 0z m15 468v47a8 8 0 0 1-15 0v-47a8 8 0 0 1 15 0z m235-176v348a8 8 0 0 1-8 8h-469a8 8 0 0 1-8-8v-812a8 8 0 0 1 8-8h148v-27a207 207 0 0 1 61-147 8 8 0 0 1 12 12 191 191 0 0 0-57 135v27h143c-12-36-10-60-10-94a8 8 0 0 1 15 0v30c0 57 24 83 35 115 9 19 16 63 9 102l-22 125a45 45 0 1 0 88 15c41-232 38-218 40-220a8 8 0 0 1 13 1c2 3 1-21 1 375a363 363 0 0 0 94-244v-369a8 8 0 0 1 16 0v369a379 379 0 0 1-109 267z m-158-197c23-132 33-158 15-212h-217a70 70 0 0 1-62 62v578a70 70 0 0 1 62 63h235a70 70 0 0 1 62-63v-369a61 61 0 0 1-95-59z m111 43v393a8 8 0 0 1-8 8 55 55 0 0 0-55 54 8 8 0 0 1-8 8h-250a8 8 0 0 1-7-8 55 55 0 0 0-55-54 8 8 0 0 1-8-8v-594a8 8 0 0 1 8-8 55 55 0 0 0 55-54 8 8 0 0 1 7-8h220c-7-16-8-15-15-31h-306v796h453v-644c-24 137-23 136-31 150z" horiz-adv-x="1000" />

<glyph glyph-name="privacy" unicode="&#xe81f;" d="M891 741a749 749 0 0 0-387 108c-1 1-4 3-9-1a748 748 0 0 0-386-107 8 8 0 0 1-7-8v-341c0-254 163-477 396-542a8 8 0 0 1 4 0c234 65 396 288 396 542v341a8 8 0 0 1-7 8z m-8-349c0-246-157-462-383-526-225 64-383 280-383 526v333a766 766 0 0 1 383 108 766 766 0 0 1 383-108z m-712 289a8 8 0 0 1-7-8v-281c0-217 137-413 334-477a9 9 0 0 1 4 0c197 64 334 260 334 477v281a8 8 0 0 1-7 8 807 807 0 0 0-325 96 8 8 0 0 1-8 0 807 807 0 0 0-325-96z m649-16v-273c0-209-131-398-320-461-189 63-320 252-320 461v273a822 822 0 0 1 320 96 822 822 0 0 1 320-96z m-531-518h422a8 8 0 0 1 8 8v328a8 8 0 0 1-8 8h-55v47a156 156 0 1 1-312 0v-47h-55a8 8 0 0 1-8-8v-328a8 8 0 0 1 8-8z m70 391a141 141 0 0 0 282 0v-47h-32v47a109 109 0 1 1-218 0v-47h-32z m235-47h-188v47a94 94 0 0 0 188 0z m-297-16h406v-312h-406z m203-31c-116 0-169-146-81-221a125 125 0 1 1 81 221z m-31-102a31 31 0 1 0 31-31 31 31 0 0 0-31 31z m-35-110c10 37 38 63 66 63s56-26 66-63a109 109 0 0 0-132 0z m145 12a102 102 0 0 1-51 61 47 47 0 1 1-56 0 102 102 0 0 1-51-61c-66 68-17 184 79 184s145-116 79-184z" horiz-adv-x="1000" />

<glyph glyph-name="protection" unicode="&#xe820;" d="M891 741a749 749 0 0 0-387 108c-1 1-4 3-9-1a748 748 0 0 0-386-107 8 8 0 0 1-7-8v-341c0-254 163-477 396-542a8 8 0 0 1 4 0c234 65 396 288 396 542v341a8 8 0 0 1-7 8z m-8-349c0-246-157-462-383-526-225 64-383 280-383 526v333a766 766 0 0 1 383 108 766 766 0 0 1 383-108z m-712 289a8 8 0 0 1-7-8v-281c0-217 137-413 334-477a9 9 0 0 1 4 0c197 64 334 260 334 477v281a8 8 0 0 1-7 8 807 807 0 0 0-325 96 8 8 0 0 1-8 0 807 807 0 0 0-325-96z m649-16v-273c0-209-131-398-320-461-189 63-320 252-320 461v273a822 822 0 0 1 320 96 822 822 0 0 1 320-96z m-320-487a188 188 0 1 1-187 188 188 188 0 0 1 187-188z m0 360a172 172 0 1 0-172-172 172 172 0 0 0 172 172z m-37-240a8 8 0 0 1 11 0l125 125a8 8 0 0 1-11 11l-119-120-57 57a8 8 0 0 1-11-11z" horiz-adv-x="1000" />

<glyph glyph-name="reviews" unicode="&#xe821;" d="M747 209h-182c26 71 51 159-10 203-37 27-78 10-78-26 0-101 7-69-72-219-3 5 10 4-194 4a8 8 0 0 1-8-8v-305a8 8 0 0 1 8-8h187a8 8 0 0 1 8 8v22a101 101 0 0 1 64-22h238a51 51 0 0 1 33 90 51 51 0 0 1 16 83 49 49 0 0 1 19 89c40 26 22 89-29 89z m-356-343h-172v289h172z m382 272a33 33 0 0 0-24-10 8 8 0 0 1 0-16 33 33 0 1 0-2-66h-25a8 8 0 0 1 0-16 35 35 0 1 0 0-70h-13a8 8 0 0 1 0-16 35 35 0 1 0 0-70h-239a85 85 0 0 0-64 28v233c94 178 86 144 86 251 0 33 53 32 76-14a74 74 0 0 0 9-34c0-89-38-130-30-141 4-5-11-3 199-3a33 33 0 0 0 27-56z m-195 578l-49 7-21 45a8 8 0 0 1-15 0l-22-45c-52-7-53-6-55-12s0-6 37-43c-8-52-10-52-5-56s6-2 52 22c48-25 45-24 48-24a8 8 0 0 1 8 10l-9 48 35 35a8 8 0 0 1-4 13z m-45-39c-4-4-3-5 4-44-37 19-34 18-37 18s-1 1-37-18c7 40 8 40 4 44l-26 26 36 5c6 1 5 2 23 38 18-37 17-37 23-38l37-5z m233 39l-49 7-22 45a8 8 0 0 1-14 0l-22-45c-52-7-53-6-55-12s-1-6 37-43c-9-52-11-52-5-56s5-2 52 22c47-25 44-24 47-24a8 8 0 0 1 8 10l-9 48 36 35a8 8 0 0 1-4 13z m-45-39c-4-4-3-5 4-44-37 19-35 18-37 18s-2 1-37-18c7 40 8 40 4 44l-27 26 37 5c6 1 5 2 23 38 18-37 17-37 22-38l37-5z m232 39l-49 7-21 45a8 8 0 0 1-15 0l-22-45c-52-7-53-6-55-12s0-6 37-43c-8-52-10-52-5-56s6-2 52 22c48-25 45-24 48-24a8 8 0 0 1 8 10l-9 48 35 35a8 8 0 0 1-4 13z m-45-39c-4-4-3-5 4-44-37 19-34 18-37 18s-1 1-36-18c7 40 7 40 4 44l-27 26 37 5c5 1 5 2 22 38 19-37 17-37 23-38l37-5z m-517 39l-49 7-22 45a8 8 0 0 1-14 0l-22-45c-52-7-53-6-55-12s-1-6 37-43c-9-52-11-52-5-56s5-2 52 22c47-25 44-24 47-24a8 8 0 0 1 8 10l-9 48 36 35a8 8 0 0 1-4 13z m-45-39c-4-4-3-5 4-44-37 19-35 18-37 18s-2 1-37-18c7 40 8 40 4 44l-27 26 37 5c6 1 5 2 23 38 18-37 17-37 22-38l37-5z m-143 39l-49 7-21 45a8 8 0 0 1-15 0l-22-45c-52-7-53-6-55-12s0-6 37-43c-9-52-10-52-5-56s5-2 52 22c48-25 45-24 47-24a8 8 0 0 1 8 10l-8 48 35 35a8 8 0 0 1-4 13z m-45-39c-4-4-3-5 4-44-37 19-34 18-37 18s-1 1-37-18c7 40 8 40 4 44l-26 26 36 5c6 1 5 2 23 38 18-37 17-37 23-38l37-5z m771 173h-858a72 72 0 0 1-71-71v-178a72 72 0 0 1 71-71h361l62-83a8 8 0 0 1 12 0l62 83h361a72 72 0 0 1 71 71v178a72 72 0 0 1-71 71z m55-249a56 56 0 0 0-55-56h-365c-6 0-3 2-64-80-61 83-58 80-64 80h-365a56 56 0 0 0-55 56v178a56 56 0 0 0 55 55h858a56 56 0 0 0 55-55z" horiz-adv-x="1000" />

<glyph glyph-name="searching" unicode="&#xe822;" d="M622 565a172 172 0 1 1 0-243 172 172 0 0 1 0 243z m-12-232a156 156 0 1 0 0 221 156 156 0 0 0 0-221z m304 517h-672a86 86 0 0 1-86-86v-758h-148a8 8 0 0 1-8-8v-62a86 86 0 0 1 86-86h672a86 86 0 0 1 86 86v102a27 27 0 0 1 19 7c36 37 43 40 43 55s-5 16-62 74v520h148a8 8 0 0 1 8 8v62a86 86 0 0 1-86 86z m-206-984h-622a70 70 0 0 0-70 70v55h656c0-50-8-94 36-125z m183 234c0-6 0-5-39-43a11 11 0 0 0-16 0l-161 160a11 11 0 0 0 0 16c40 39 38 39 44 39s-2 6 111-107c60-60 61-58 61-65z m-247 200a203 203 0 1 0 0 287 203 203 0 0 0 0-287z m21 0l28-27-22-22-28 27a207 207 0 0 1 22 22z m73-20a28 28 0 0 1-33 3l-30 30c108 144 5 350-175 350a219 219 0 0 1-219-219c0-183 209-281 350-176l29-29a27 27 0 0 1 4-33c174-174 161-161 164-163v-107a70 70 0 0 0-140 0v62a8 8 0 0 1-8 8h-508v758a70 70 0 0 0 70 70c669 0 623 1 621-1a86 86 0 0 1-33-49c-3-14-2 32-2-594z m246 429h-140v55a70 70 0 0 0 140 0z" horiz-adv-x="1000" />

<glyph glyph-name="see-you-soon" unicode="&#xe823;" d="M663 246l-55 322a52 52 0 0 1-102-12l14-192-75 205a53 53 0 0 1-100-33l60-209-88 148a50 50 0 0 1-89-47l65-142-36 50a51 51 0 0 1-85-55l166-287c3-4 63-113 181-113 157 0 232 118 251 229 17 105 36 172 60 221 43 87-77 170-167-85z m152 92c-24-50-43-119-61-225-17-104-88-216-235-216-108 0-166 104-167 105l-166 288a35 35 0 0 0 58 37l85-120a8 8 0 0 1 14 8l-101 220a35 35 0 0 0 61 32l120-202a8 8 0 0 1 15 7l-78 269a37 37 0 0 0 70 22l95-258a8 8 0 0 1 16 3l-19 249a36 36 0 0 0 71 8l60-353a8 8 0 0 1 15-1c0 1 41 139 98 178 54 35 66-18 49-51z m177-11h-62a8 8 0 0 1 0-16h62a8 8 0 0 1 0 16z m-922 0h-62a8 8 0 0 1 0-16h62a8 8 0 0 1 0 16z m438 421v63a8 8 0 0 1-16 0v-63a8 8 0 0 1 16 0z m364-222c3 0-1-2 58 32a8 8 0 0 1-8 14l-54-31a8 8 0 0 1 4-15z m-748-415l-54-31a8 8 0 0 1 8-14l54 31a8 8 0 0 1-8 14z m8 430l-54 31a8 8 0 0 1-8-14l54-31a8 8 0 0 1 8 14z m798-461l-54 31a8 8 0 0 1-8-14l54-31a8 8 0 0 1 8 14z m-652 607a8 8 0 0 1 14 8l-31 54a8 8 0 0 1-14-8z m444 0l31 54a8 8 0 0 1-14 8l-31-54a8 8 0 0 1 14-8z" horiz-adv-x="1000" />

<glyph glyph-name="sent-message" unicode="&#xe824;" d="M998 597c-3 5 34 3-639 3a8 8 0 0 1-5-2c-3-3-81-488-81-489a8 8 0 0 1 5-8c1-1 637-2 641 1a9 9 0 0 1 3 5c83 516 80 486 76 490z m-89-471l-204 225 276 222z m-544 449c219-238 198-214 203-219l-275-228z m328-213a87 87 0 0 0-117 8l-198 214h592z m-113-17a102 102 0 0 1 112-4l204-225h-593z m-392 21h-180a8 8 0 0 1 0-16h180a8 8 0 0 1 0 16z m101 164h-141a8 8 0 0 1 0-16h141a8 8 0 0 1 0 16z m-195 140h437a8 8 0 0 1 0 16h-437a8 8 0 0 1 0-16z m383-640h-63a8 8 0 0 1 0-16h63a8 8 0 0 1 0 16z m-110 0h-273a8 8 0 0 1 0-16h273a8 8 0 0 1 0 16z m-211 164h-101a8 8 0 0 1 0-16h101a8 8 0 0 1 0 16z m47 0a8 8 0 0 1 0-16h16a8 8 0 0 1 0 16z m-109 320h15a8 8 0 0 1 0 16h-15a8 8 0 0 1 0-16z" horiz-adv-x="1000" />

<glyph glyph-name="shipping" unicode="&#xe825;" d="M1000 270l-86 268a55 55 0 0 1-53 39h-205v187a8 8 0 0 1-8 8h-640a8 8 0 0 1-8-8v-734a8 8 0 0 1 8-8h102a102 102 0 0 1 203 0c441 0 387 0 391 0a102 102 0 0 1 202 0h86a8 8 0 0 1 8 8c0 252 0 238 0 240z m-586 486v-88l-20 9c-5 3-6 0-34-13-30 14-30 16-35 13l-28-13-28 13c-4 3-6 1-27-9v88z m-398 0h211v-101a8 8 0 0 1 7-8c3 0 2 0 32 15 29-15 30-17 35-14l27 13 28-13c5-3 6 0 35 13 30-15 30-16 35-13s4-1 4 108h211v-562h-625z m0-578h625v-140h-328a102 102 0 0 1-203 0h-94z m195-234a86 86 0 1 0 86 86 86 86 0 0 0-86-86z m594 0a86 86 0 1 0 86 86 86 86 0 0 0-86-86z m101 94a102 102 0 0 1-202 0c-2 0 9 0-47 0v523h205a40 40 0 0 0 38-28l6-19h-172a8 8 0 0 1-7-8v-234a8 8 0 0 1 7-8h250v-62h-23a23 23 0 0 1-23-24v-62a23 23 0 0 1 23-24h23v-54z m68 242h-232v218h163z m10-172h-23a8 8 0 0 0-8 8v62a8 8 0 0 0 8 8h23z m-211 109h-39a8 8 0 0 1 0-15h39a8 8 0 0 1 0 15z m32-133a55 55 0 1 1 54-54 55 55 0 0 1-54 54z m0-93a39 39 0 1 0 39 39 39 39 0 0 0-39-39z m-594 93a55 55 0 1 1 55-54 55 55 0 0 1-55 54z m0-93a39 39 0 1 0 39 39 39 39 0 0 0-39-39z m117 617a188 188 0 1 1 188-188 188 188 0 0 1-188 188z m0-360a172 172 0 1 0 172 172 172 172 0 0 0-172-172z m88 240l-119-119-57 57a8 8 0 0 1-11-11c67-68 63-65 68-65s-5-8 131 127a8 8 0 0 1-12 11z" horiz-adv-x="1000" />

<glyph glyph-name="something-went-wrong" unicode="&#xe826;" d="M988 51l-420 683a79 79 0 0 1-136 0l-420-683c-33-53 4-123 67-123h842c64 0 99 71 67 123z m-4-43a64 64 0 0 0-63-64h-842a64 64 0 0 0-63 65c0 26-30-30 430 717a63 63 0 0 0 108 0c462-749 430-691 430-718z m-477 671a8 8 0 0 1-14 0l-406-660a8 8 0 0 1 7-13c869 0 816-2 820 4s27-37-407 669z m-399-657l392 638 392-638z m347 474c-3-4-3 16 11-295a8 8 0 0 1 8-8h52a8 8 0 0 1 8 8l13 289a8 8 0 0 1-8 8c-84 0-80 2-84-2z m76-13l-13-274h-36l-13 274z m-31-328a47 47 0 1 1 47-47 47 47 0 0 1-47 47z m0-78a31 31 0 1 0 31 31 31 31 0 0 0-31-31z" horiz-adv-x="1000" />

<glyph glyph-name="sign-up" unicode="&#xe827;" d="M334 395h0c175-143 424-15 424 197a258 258 0 1 1-424-197z m15 9c46 178 256 178 302 0a241 241 0 0 0-302 0z m151 430c221 0 325-271 165-419-20 68-65 116-121 132a102 102 0 1 1-87 0c-57-16-102-64-122-132-159 148-56 419 165 419z m0-281a86 86 0 1 0 86 86 86 86 0 0 0-86-86z m305-430h-610a8 8 0 0 1-7-7v-110a8 8 0 0 1 7-8h610a8 8 0 0 1 8 8v110a8 8 0 0 1-8 7z m-8-109h-594v94h594z m8 281h-610a8 8 0 0 1-7-7v-110a8 8 0 0 1 7-8h610a8 8 0 0 1 8 8v110a8 8 0 0 1-8 7z m-8-109h-594v94h594z m-410-234h-86a51 51 0 1 1 0-102h86a51 51 0 0 1 0 102z m0-86h-86a35 35 0 1 0 0 70h86a35 35 0 0 0 0-70z m312 86h-86a51 51 0 1 1 0-102h86a51 51 0 0 1 0 102z m0-86h-86a35 35 0 0 0 0 70h86a35 35 0 0 0 0-70z" horiz-adv-x="1000" />

<glyph glyph-name="success" unicode="&#xe828;" d="M398-103h204a8 8 0 0 1 7 8v109a8 8 0 0 1-7 8h-204a8 8 0 0 1-7-8v-109a8 8 0 0 1 7-8z m8 109h188v-94h-188z m469 828c-45 0-79-18-96-51l2 59a8 8 0 0 1-8 8c-584 0-548 2-552-2s-3-2 0-65c-17 33-51 51-96 51-78 0-125-46-125-125 0-129 237-171 237-235 0-20-9-30-26-30-9 0-20 13-25 20a8 8 0 0 1-13-9c2-3 19-27 38-27a40 40 0 0 1 36 20c34-109 118-194 222-218v-115a39 39 0 0 1-31-38v-9h-110a8 8 0 0 1-8-7l-23-195h-24a8 8 0 0 1 0-16h454a8 8 0 0 1 0 16h-23l-23 195a8 8 0 0 1-8 7h-110v9a39 39 0 0 1-32 38v115c104 24 188 109 222 218a40 40 0 0 1 36-20c19 0 36 24 38 27a8 8 0 0 1-13 9c-5-6-16-20-25-20-17 0-26 10-26 31 0 63 237 105 237 234 0 79-47 125-125 125z m-187-968h-375l22 186h331z m-672 843c0 70 40 110 109 110 60 0 94-34 94-94a78 78 0 0 0-42-71 8 8 0 0 1 6-14 96 96 0 0 1 43 43c6-156 6-152 8-170-56 54-218 98-218 196z m531-632v-8h-94v8a23 23 0 0 0 24 23h46a23 23 0 0 0 24-23z m-31 39h-32v111a62 62 0 0 1 32 0z m-16 125c-137 15-246 143-252 298l-13 295h530l-12-295c-7-154-116-283-253-298z m266 272c3 21 3 27 9 170a96 96 0 0 1 42-43 8 8 0 0 1 7 14 78 78 0 0 0-43 71c0 60 34 94 94 94 69 0 109-40 109-110 0-98-162-142-218-196z m-266 251a188 188 0 1 1 188-187 188 188 0 0 1-188 187z m0-359a172 172 0 1 0 172 172 172 172 0 0 0-172-172z m88 240l-119-120-57 57a8 8 0 0 1-11-11c67-67 63-65 68-65s-6-9 130 128a8 8 0 0 1-11 11z" horiz-adv-x="1000" />

<glyph glyph-name="term-of-use" unicode="&#xe829;" d="M914 850h-672a86 86 0 0 1-86-86v-758h-148a8 8 0 0 1-8-8v-62a86 86 0 0 1 86-86h672a86 86 0 0 1 86 86v758h148a8 8 0 0 1 8 8v62a86 86 0 0 1-86 86z m-206-984h-622a70 70 0 0 0-70 70v55h656c0-50-8-94 36-125z m120 70a70 70 0 0 0-140 0v62a8 8 0 0 1-8 8h-508v758a70 70 0 0 0 70 70h622a87 87 0 0 1-36-70z m156 773h-140v55a70 70 0 0 0 140 0z m-695-343h-47a8 8 0 0 1-8-8v-47a8 8 0 0 1 8-8h47a8 8 0 0 1 8 8v47a8 8 0 0 1-8 8z m-8-47h-31v31h31z m477 47h-414a8 8 0 0 1 0-16h414a8 8 0 0 1 0 16z m-414-63h281a8 8 0 0 1 0 16h-281a8 8 0 0 1 0-16z m-55-62h-47a8 8 0 0 1-8-8v-47a8 8 0 0 1 8-8h47a8 8 0 0 1 8 8v47a8 8 0 0 1-8 8z m-8-47h-31v31h31z m477 47h-414a8 8 0 0 1 0-16h414a8 8 0 0 1 0 16z m-414-63h281a8 8 0 0 1 0 16h-281a8 8 0 0 1 0-16z m-55-62h-47a8 8 0 0 1-8-8v-47a8 8 0 0 1 8-8h47a8 8 0 0 1 8 8v47a8 8 0 0 1-8 8z m-8-47h-31v31h31z m477 47h-414a8 8 0 0 1 0-16h414a8 8 0 0 1 0 16z m-133-47h-281a8 8 0 0 1 0-16h281a8 8 0 0 1 0 16z m-125 344a188 188 0 1 1-187 187 188 188 0 0 1 187-187z m0 359a172 172 0 1 0-172-172 172 172 0 0 0 172 172z m-37-240a8 8 0 0 1 11 0l125 125a8 8 0 0 1-11 11l-119-119-57 57a8 8 0 0 1-11-12z" horiz-adv-x="1000" />

<glyph glyph-name="unsubscribed" unicode="&#xe82a;" d="M852 553a148 148 0 1 1 0 297h-704a148 148 0 0 1 0-297h290v-169a86 86 0 0 1-71 36 39 39 0 0 1-39-39v-250a281 281 0 1 1 563 0v154c0 60-72 88-111 43a63 63 0 0 1-116 21 63 63 0 0 1-101 12v192z m-704 16c-118 0-176 143-93 226a132 132 0 0 0 93 39h704c118 0 176-143 93-226a132 132 0 0 0-93-39h-289v31a63 63 0 1 1-125 0v-31z m461-203a47 47 0 0 0 47-47 8 8 0 0 1 16 0 46 46 0 0 0 14 33c30 29 80 7 80-35v-29a8 8 0 0 1 15 0 46 46 0 0 0 14 33c31 29 80 7 80-36v-154a266 266 0 0 0-531 0v250c0 44 94 23 94-47v-171a8 8 0 0 1 15 0v437a47 47 0 0 0 94 0v-281a8 8 0 0 1 16 0 47 47 0 0 0 46 47z" horiz-adv-x="1000" />

<glyph glyph-name="upgrade" unicode="&#xe82b;" d="M988 211l-85 49a401 401 0 0 1 0 180l85 49a8 8 0 0 1 3 11c-126 217-116 203-121 204s0 3-91-50a415 415 0 0 1-155 90v98a8 8 0 0 1-8 8h-232a8 8 0 0 1-8-8v-98a415 415 0 0 1-155-90l-85 49a8 8 0 0 1-11-3c-126-217-118-202-117-206s-3-2 89-54a399 399 0 0 1 0-180c-92-53-88-49-89-54s-10 13 117-206a8 8 0 0 1 11-3l85 49a415 415 0 0 1 156-90v-98a8 8 0 0 1 7-8h232a8 8 0 0 1 8 8v98a415 415 0 0 1 155 90c92-53 87-51 91-50s-5-15 121 204a8 8 0 0 1-3 11z m-123-196l-83 48a8 8 0 0 1-9-1 399 399 0 0 0-159-93 8 8 0 0 1-6-8v-95h-216v96a8 8 0 0 1-5 7 399 399 0 0 0-160 93 8 8 0 0 1-9 1l-83-48-108 187 83 48a8 8 0 0 1 4 8 387 387 0 0 0 0 184 8 8 0 0 1-4 9l-83 47 108 187 83-48a8 8 0 0 1 9 1 399 399 0 0 0 160 92 8 8 0 0 1 5 8v96h216v-96a8 8 0 0 1 6-7 399 399 0 0 0 159-92 8 8 0 0 1 9-2l83 49 108-188-83-48c-12-6 7-22 7-100s-19-94-7-101l83-47z m-359 556a8 8 0 0 1-11 0l-149-145a8 8 0 0 1 6-13h70v-149a8 8 0 0 1 8-8h140a8 8 0 0 1 8 8v149c76 0 75-2 78 5s10-4-150 153z m64-143a8 8 0 0 1-7-8v-148h-125v148a8 8 0 0 1-8 8h-59l129 126 129-126z m-70 203a281 281 0 1 1 281-281 282 282 0 0 1-281 281z m0-547a266 266 0 1 0 266 266 266 266 0 0 0-266-266z m70 133h-140a8 8 0 0 1-8-8v-54a8 8 0 0 1 8-8h140a8 8 0 0 1 8 8v54a8 8 0 0 1-8 8z m-7-54h-125v39h125z" horiz-adv-x="1000" />

<glyph glyph-name="uploading" unicode="&#xe82c;" d="M780 366a112 112 0 0 1 0 223h-10a112 112 0 0 1-141 140 208 208 0 0 1-398-81 142 142 0 0 1 20-282h187v-78h-165a8 8 0 0 1-7-8v-71h-55a8 8 0 0 1-8-7v-313a39 39 0 0 1 39-39h516a39 39 0 0 1 39 39v391a8 8 0 0 1-8 8h-226v78z m-529 15a126 126 0 0 0-11 252 9 9 0 0 1 7 8 193 193 0 0 0 370 75 8 8 0 0 1 5-5c6-3 14 8 42 8a96 96 0 0 0 87-135 8 8 0 0 1 7-12h21a96 96 0 0 0 0-191h-216v32h46a8 8 0 0 1 6 13l-109 110a8 8 0 0 1-12 0c-131-132-110-107-110-120 4-5 3-3 53-3v-32z m202 39a8 8 0 0 1-8 8h-35l90 90 90-90h-35a8 8 0 0 1-8-8v-195h-94z m-211-554a23 23 0 0 0-23 23v305h128l29-44c4-5-13-3 343-3 0-276-3-265 6-278 2-5 55-3-483-3z m539 406v-383a23 23 0 0 0-42-13c-6 9-5-10-5 279a8 8 0 0 1-7 8h-340c-31 46-30 46-35 46h-71v63h157v-55a8 8 0 0 1 7-8h110a8 8 0 0 1 8 8v55z" horiz-adv-x="1000" />

<glyph glyph-name="verification" unicode="&#xe82d;" d="M367 748a31 31 0 1 1-31 32 31 31 0 0 1 31-32z m0 47a16 16 0 1 0-15-15 16 16 0 0 0 15 15z m367-423v361a31 31 0 0 1-31 31h-172v24a8 8 0 0 1-8 7h-87a70 70 0 0 1-137 0h-88a8 8 0 0 1-8-7v-24h-172a31 31 0 0 1-31-31v-852a31 31 0 0 1 31-31h672a31 31 0 0 1 31 31v150a188 188 0 1 1 0 341z m-31 376a16 16 0 0 0 16-15v-369a188 188 0 0 1-55-48v386a8 8 0 0 1-8 7h-125v39z m-492-93h312a8 8 0 0 1 8 8v31h117v-402a188 188 0 0 1 0-181v-183h-562v766h117v-31a8 8 0 0 1 8-8z m8 125h86a8 8 0 0 1 8 7 55 55 0 0 0 108 0 8 8 0 0 1 8-7h87v-110h-297z m500-899a16 16 0 0 0-16-15h-672a16 16 0 0 0-15 15v852a16 16 0 0 0 15 15h172v-39h-125a8 8 0 0 1-8-7v-782a8 8 0 0 1 8-8h578a8 8 0 0 1 8 8v167a188 188 0 0 1 55-48z m94 149a172 172 0 1 0 171 172 172 172 0 0 0-171-172z m88 240l-120-120-57 57a8 8 0 0 1-11-11c68-67 64-65 68-65s-6-9 131 128a8 8 0 0 1-11 11z m-768 307v-102a8 8 0 0 1 8-8h453a8 8 0 0 1 8 8v102a8 8 0 0 1-8 7h-453a8 8 0 0 1-8-7z m15-8h438v-86h-438z m446-172h-406a8 8 0 0 1 0-16h406a8 8 0 0 1 0 16z m0-63h-453a8 8 0 0 1 0-15h453a8 8 0 0 1 0 15z m0-62h-453a8 8 0 0 1 0-16h453a8 8 0 0 1 0 16z m-453-78h234a8 8 0 0 1 0 15h-234a8 8 0 0 1 0-15z m453-47h-406a8 8 0 0 1 0-16h406a8 8 0 0 1 0 16z m0-63h-453a8 8 0 0 1 0-15h453a8 8 0 0 1 0 15z m-94-62h-359a8 8 0 0 1 0-16h359a8 8 0 0 1 0 16z" horiz-adv-x="1000" />

<glyph glyph-name="waiting" unicode="&#xe82e;" d="M961 292v74h16a8 8 0 0 1 7 7v63a8 8 0 0 1-7 8h-149a414 414 0 0 1-828-8c0-284 280-484 548-392-11-26-9-36-9-116h-16a8 8 0 0 1-7-8v-62a8 8 0 0 1 7-8h454a8 8 0 0 1 7 8v62a8 8 0 0 1-7 8h-16v74a107 107 0 0 1-39 83l-78 62 78 62a107 107 0 0 1 39 83z m8 89h-438v47h438z m-446-15h16v-74a107 107 0 0 1 39-83l45-36c-218-173-545-19-545 263a336 336 0 0 0 672 8h-227a8 8 0 0 1-7-8v-63a8 8 0 0 1 7-7z m-507 70a398 398 0 0 0 797 8h-47a352 352 0 0 1-703-8c0-297 345-458 573-273l20-16c-84-67-85-66-96-82-260-102-544 90-544 371z m953-570h-438v46h438z m-219 283c-8 11-6 9-101 84a512 512 0 0 1 202 0c-97-78-94-74-101-84z m0-84l137-137h-274z m162 156c-92-73-89-69-89-74s-3-1 89-74a91 91 0 0 0 33-71v-74h-35l-153 153c1 2 1-1 1 49 6 16 3 11 131 112a8 8 0 0 1-8 14 498 498 0 0 0-262 0 8 8 0 0 1-7-14c126-101 124-96 130-112v-46c0-6 20 16-151-156h-36v74a91 91 0 0 0 33 70l86 68a8 8 0 0 1 0 13l-86 68a91 91 0 0 0-33 70v75h391v-74a91 91 0 0 0-34-71z m-490 512v15a8 8 0 0 1-16 0v-15a8 8 0 0 1 16 0z m-16-594v-16a8 8 0 0 1 16 0v16a8 8 0 0 1-16 0z m-289 305h-15a8 8 0 0 1 0-16h15a8 8 0 0 1 0 16z m145 256a8 8 0 0 1-8 13 8 8 0 0 1 8-13z m312-541a8 8 0 0 1-8 13 8 8 0 0 1 8-13z m-8 541a8 8 0 0 1 8 13 8 8 0 0 1-8-13z m-304-528a8 8 0 0 1-8-13 8 8 0 0 1 8 13z m427 413a8 8 0 0 1-8 14 8 8 0 0 1 8-14z m-549-298a8 8 0 0 1 7-14 8 8 0 0 1-7 14z m7 312a8 8 0 0 1-7-14 8 8 0 0 1 7 14z m298-155h-17c-8 13-6-32-6 226a8 8 0 0 1-16 0v-220c-13-8 28-6-195-6a8 8 0 0 1 0-16c224 0 182 3 195-5v-26a8 8 0 0 1 16 0v25a15 15 0 0 1 6 6h17a8 8 0 0 1 0 16z" horiz-adv-x="1000" />

<glyph glyph-name="welcome" unicode="&#xe82f;" d="M931-17c74 130 71 123 68 129s-2 4-91 4c-2 0-2-19-2 156a31 31 0 0 1-31 31h-750a31 31 0 0 1-31-31v-156c-3 0 5 0-87 0a8 8 0 0 1-7-12l68-121-68-121a8 8 0 0 1 7-12h274a31 31 0 0 1 32 31v157h375v-157a31 31 0 0 1 30-31h274a8 8 0 0 1 7 12z m-822 289a16 16 0 0 0 16 16h750a16 16 0 0 0 16-16v-221c-9 4 43 2-769 2a28 28 0 0 1-12-2z m173-406h-261l64 113c3 5 4-1-64 121 76 0 70 0 73 0v-75a28 28 0 0 1 13-24l183-108a15 15 0 0 0-8-27z m15 41c-196 117-188 109-188 118a12 12 0 0 0 13 13h175z m582 131a12 12 0 0 0 12-12c0-10 9-2-188-118v130z m-161-172a15 15 0 0 0-8 27l183 108a28 28 0 0 1 13 24v75c2 0-6 0 72 0-68-122-66-115-63-121l64-113z m-313 486a258 258 0 1 1-163 240 258 258 0 0 1 163-240z m-56 52c46 178 256 178 302 0a241 241 0 0 0-302 0z m151 430c219 0 325-269 165-419-20 68-65 116-121 132a102 102 0 1 1-87 0c-57-16-102-64-122-132-160 148-55 419 165 419z m0-281a86 86 0 1 0 86 86 86 86 0 0 0-86-86z" horiz-adv-x="1000" />

<glyph glyph-name="you-are-up-to-date" unicode="&#xe830;" d="M977 795h-94v47a8 8 0 0 1-16 0v-47h-78v47a8 8 0 0 1-16 0v-47h-78v47a8 8 0 0 1-15 0v-47h-78v47a8 8 0 0 1-16 0v-47h-78v47a8 8 0 0 1-16 0v-47h-78v47a8 8 0 0 1-16 0v-47h-78v47a8 8 0 0 1-15 0v-47h-78v47a8 8 0 0 1-16 0v-47h-78v47a8 8 0 0 1-16 0v-47h-94a23 23 0 0 1-23-23v-172a23 23 0 0 1 16-22c0-755-1-721 1-724 3-7-60-4 960-4a8 8 0 0 1 8 8v720a23 23 0 0 1 15 22v172a23 23 0 0 1-23 23z m-8-929h-851l781 132a86 86 0 0 1 70 37z m-803 24l647 184a86 86 0 0 1 47-66z m803 194a70 70 0 0 0-141 0c0 16 37 21-797-216v709h938z m15 516a8 8 0 0 0-7-8h-954a8 8 0 0 0-7 8v172a8 8 0 0 0 7 8h94v-63a8 8 0 0 1 16 0v63h78v-63a8 8 0 0 1 16 0v63h78v-63a8 8 0 0 1 15 0v63h78v-63a8 8 0 0 1 16 0v63h78v-63a8 8 0 0 1 16 0v63h78v-63a8 8 0 0 1 16 0v63h78v-63a8 8 0 0 1 15 0v63h78v-63a8 8 0 0 1 16 0v63h78v-63a8 8 0 0 1 16 0v63h94a8 8 0 0 0 7-8z m-484-492a188 188 0 1 1-187 187 188 188 0 0 1 187-187z m0 359a172 172 0 1 0-172-172 172 172 0 0 0 172 172z m-37-240a8 8 0 0 1 11 0l125 125a8 8 0 0 1-11 11l-119-119-57 57a8 8 0 0 1-11-11z" horiz-adv-x="1000" />

<glyph glyph-name="404-error-" unicode="&#xe831;" d="M992 108h-133v62h133a8 8 0 0 1 0 16h-133v12a8 8 0 0 1-6 8c-80 19-72 17-72 19a55 55 0 0 1-54 55h-125v8a8 8 0 0 1-16 0v-297a8 8 0 0 1 16 0v7h125a55 55 0 0 1 54 57l72 18c8 2 6 8 6 19h133a8 8 0 0 1 0 16z m-226-55a39 39 0 0 0-39-39h-125v250h125a39 39 0 0 0 39-39z m78 34l-63-16v136l63-16z m-344 255a188 188 0 1 1-187 188 188 188 0 0 1 187-188z m0 360a172 172 0 1 0-172-172 172 172 0 0 0 172 172z m-72-256l72 72 73-72a8 8 0 0 1 11 11l-73 73 73 72a8 8 0 0 1-11 11l-73-72-72 72a8 8 0 0 1-12-11l73-72-73-73a8 8 0 0 1 12-11z m80-252a31 31 0 0 1 0 62h-94v32a8 8 0 0 1-16 0v-8h-117a63 63 0 0 1-62-57l-73-18c-7-2-6-8-6-19h-132a8 8 0 0 1 0-16h133v-62h-133a8 8 0 0 1 0-16h133v-11a8 8 0 0 1 6-8l72-18a63 63 0 0 1 62-57h117v-7a8 8 0 0 1 16 0v31h94a31 31 0 0 1 0 62h-94v110z m0 47a16 16 0 0 0 0-32h-94v32z m-352-50l63 16v-136l-63 16z m125-177a47 47 0 0 0-47 47v156a47 47 0 0 0 47 47h117v-250z m227 55a16 16 0 0 0 0-31h-94v31z" horiz-adv-x="1000" />
</font>
</defs>
</svg>
